#TITLE:Mexican Thong Song;
#SUBTITLE:;
#ARTIST:some mexican dude;
#TITLETRANSLIT:;
#SUBTITLETRANSLIT:;
#ARTISTTRANSLIT:;
#CREDIT:;
#BANNER:;
#BACKGROUND:mexithong-bg.jpg;
#LYRICSPATH:;
#CDTITLE:!mwerpTitle.png;
#MUSIC:Parodys - Sisco's - Mexican Thong Song.mp3;
#OFFSET:0.020;
#SAMPLESTART:21.106;
#SAMPLELENGTH:12.000;
#SELECTABLE:YES;
#BPMS:0.000=121.600,68.000=60.800,69.500=121.601,70.500=60.800,72.000=121.601,73.000=60.800,74.500=121.601,79.500=243.201,85.500=121.601,86.500=243.201,92.500=121.600;
#STOPS:;
#BGCHANGES:;
// cache tags:
#FIRSTBEAT:4.875;
#LASTBEAT:156.875;
#SONGFILENAME:Songs/Music V.I.P ^_^/Mexican thong song/mexithong.sm;
#HASMUSIC:1;
#HASBANNER:0;
#MUSICLENGTH:81.395;
// end cache tags

//---------------dance-single - MANIAC----------------
#NOTES:
     dance-single:
     MANIAC:
     Hard:
     16:
     0.620,0.988,0.455,0.123,1.000,306.000,37.000,10.000,0.000,0.000:

0000
0000
0000
0000
,
0000
0000
0000
0000
0000
0000
0000
0001
0000
0000
0000
0000
0000
0000
0000
0000
0000
1000
0000
0000
0000
0000
0100
0000
0000
0010
0000
0000
0000
0001
0000
0000
,
0000
0010
0000
0100
1000
0000
0010
0000
0000
0100
0000
0000
0001
0000
0000
0000
0000
0000
0000
1000
0000
0000
0000
0000
0100
0000
0000
0010
0000
0000
0000
0001
,
0000
0000
0000
0010
0000
0000
0000
0000
0000
0000
0000
0000
0000
0000
0000
0000
0000
0000
0000
0100
0000
0000
0000
0000
0000
1000
0000
0000
0001
0000
0000
0000
,
0000
0010
0000
0000
0000
0001
0000
0000
0100
0000
0010
0000
0000
0000
1000
0000
0000
0000
0000
0001
0100
0000
0000
0010
0000
0000
0000
0000
0000
0000
0000
0000
,
0000
0000
0000
0000
0000
0000
0000
0000
0000
0000
0000
0000
1000
0000
0000
0000
0001
0000
0100
0000
0010
0000
1000
0000
0000
0001
0000
0000
0000
0010
0000
0100
,
0000
1000
0000
0000
0001
0000
0010
0000
0000
0100
1000
0000
0001
0000
0000
0000
0010
0000
0000
0100
0000
0000
0000
0000
0000
0010
0000
0001
0000
0000
0100
0000
,
0010
0000
0000
1000
0000
0001
0000
0000
0000
0100
0000
0000
0010
0000
0000
0000
0000
0000
0000
0000
0000
0000
0000
1000
0000
0000
0001
0000
0000
0100
0000
0000
,
0000
0000
0000
0010
0000
0000
0000
0000
1000
0000
0000
0001
0000
0000
0000
0000
0000
0000
0000
0000
0000
0000
0000
0000
1000
0000
0000
0000
0100
0000
0000
0000
,
0010
0001
1000
0000
0100
0000
1000
0001
0000
0000
0010
0000
0100
0000
0010
0000
,
0001
0100
0010
0000
1000
0000
0010
0100
0000
0000
0000
0000
0001
1000
0100
0000
,
0010
0001
0010
0100
1000
0001
0000
0010
0000
0000
0010
0001
0100
0000
0010
1000
,
0100
0000
1000
0001
0100
0001
0010
0000
1000
0000
0000
0000
0000
0001
1000
0100
,
1000
0000
0010
0100
0001
1000
0000
0100
0000
0000
0010
0001
0100
0000
0010
1000
,
0100
0000
0010
0001
0100
0010
0000
1000
0000
0000
1000
0001
1000
0001
1000
0000
,
0001
0000
1000
0001
1000
0001
1000
0000
0001
0000
0110
0110
1001
1001
0011
1100
,
0000
1010
0000
0101
0000
0110
0000
0000
2002
0000
3003
0000
1000
0001
1000
0001
,
1001
0000
0110
0000
1001
0000
0001
1000
0100
0000
1001
0000
0110
0000
1001
0000
,
0001
1000
0100
1000
1001
0000
0110
0000
1001
0000
0000
0001
1000
0100
0010
0001
,
1000
0002
0000
0000
0000
0000
1000
0003
0000
0000
0001
1000
0001
1000
1001
0000
,
0000
0000
0000
0110
0000
0000
0000
1001
,
0000
0000
0000
0000
0000
0000
0001
1000
0100
0000
1001
0000
0000
0000
0000
0000
,
0000
0110
0000
0000
0000
1001
0000
0000
,
0000
0000
0001
1000
0100
0000
2000
0000
0000
0000
3000
0000
0000
0000
0000
0000
,
0001
0000
2000
0000
0000
0000
0002
3000
0000
0000
2000
0003
0000
0000
3200
0000
,
0000
0000
2000
0300
0000
0000
0000
0000
0000
0000
0000
0000
0000
0000
0000
0000
,
0000
0000
0000
0000
3000
0000
0000
0000
0000
0001
0000
0000
0000
1000
0000
0000
0000
0000
0000
0100
0000
0000
0000
0000
0000
0000
0000
0000
0000
0000
0000
0000
,
0000
0000
0001
1000
0100
0010
0001
0010
,
0000
0000
0000
0000
1000
0000
0000
0000
0000
0000
0001
0000
0000
1000
0000
0000
0000
0100
0000
0000
0000
0010
0000
0000
0000
0000
0000
0000
0000
0000
0000
0000
,
0001
0000
1000
0100
0010
0100
1000
0000
0001
0000
1000
0100
0000
1000
0100
0000
,
0000
1000
0001
0100
0010
0100
0001
0000
1000
0000
0001
0100
0000
0001
0100
0000
,
0000
0001
0010
0100
1000
0100
0010
0000
0001
0000
1000
0001
0000
0000
0000
0000
,
0000
0000
0000
0000
0000
0000
1000
0000
0000
0000
0001
0000
0000
0000
0100
0000
0000
0010
0000
0000
0000
1000
0000
0000
0000
0100
0000
0000
0000
0000
1000
0000
,
0000
0000
0000
0010
0000
0000
1000
0000
0001
0000
0000
0000
0000
0000
2000
0000
0000
0000
0000
0000
0000
0000
0000
0000
3001
0000
0000
1000
0000
0000
0100
0000
,
0000
0000
0010
0000
0000
0000
0001
0000
0000
0000
0000
0000
1000
0000
0000
0000
0000
0100
0000
0000
1000
0000
0000
0000
0000
0000
0000
0000
0000
0001
0000
0000
,
0000
0000
0000
0000
0010
0000
0000
0000
0000
0000
0100
0000
0000
0000
1000
0000
0000
0000
0000
0001
0000
0000
0000
0010
0000
0000
0000
0100
0000
0000
0000
0010
,
0000
0000
0000
0001
0000
0000
0000
0000
0000
0000
0000
0000
0100
0000
1000
0000
0000
0000
0100
0000
0000
0001
0000
0000
0000
0010
0000
0000
0000
0100
0000
0000
,
0000
0000
0000
0000
1000
0000
0000
0010
0000
0000
0000
0000
0000
1000
0000
0001
0000
0000
0100
0000
0000
0010
0000
0000
0000
0100
0000
0000
0001
0000
0000
0010
,
0100
0000
0000
1000
0000
0001
0000
0000
0000
0000
0000
0000
0000
0000
0001
1000
0110
0001
1010
0101
0010
1001
0100
0010
1001
0110
0001
1000
0110
0001
1010
0101
,
0010
1000
0101
0010
1000
0011
0100
1001
0000
0000
0000
0000
0000
0000
0000
0000
0000
0000
0000
0000
0000
0000
0000
0000
0000
0000
0000
0000
0000
0000
0000
0000
,;
